Epubor Ultimate Converter 3 0 10 224 + Crack [CracksNow]
Ван-Пис: Фильм шестой
[Login] or [Signup]
Login
Username:
Password:
[Signup]
[Recover Account]


Poll


You must be logged in to view polls



Torrent Details For "M S Dhoni The Untold Story (2016) BluRay 1080p 5.1CH x264 Ganool"

M S Dhoni The Untold Story (2016) BluRay 1080p 5.1CH x264 Ganool

Download this torrent | Magnet Download
Health:
Seeds: 0
Leechers: 0
Completed:
Last Checked: 15-04-2018 07:43:55
External Torrent
Update Stats
Download Magnet


Poster


iMDB
Imdb Picture Title: M.S. Dhoni: The Untold Story
Year: 2016
Runtime: 184 minutes
Votes: 20744
Rating: 7.9/10
Language: Hindi
Country: India
All Genres: Biography, Drama, Sport
Plot Outline: The untold story of Mahendra Singh Dhoni's journey from ticket collector to trophy collector - the world-cup-winning captain of the Indian Cricket Team.
Tagline: The man you know... The journey you don't.
Director: Neeraj Pandey
Writing By: Neeraj Pandey,Neeraj Pandey,Dilip Jha,Mohinder Pratap Singh,Shyam Maheshwari,
Produced By: Deepak Gawade,Vineet Joshi,Arun Pandey,Suraj Singh,Fox Star Studios,
Music: Sanjoy Chowdhury
Plot:

Mahendra Singh Dhoni is a goalkeeper in school football team.Bannerjee a school cricket coach asks him to join his cricket team and practice daily with him for two hours time passes and he becomes a big state level cricketer but for a long time his luck doesn't favor him to become a member of Indian Cricket team.Dhoni takes up a job in Indian Railways as a ticket checker and plays cricket for the railways after long wait of 4 years he gets selected in Indian Cricket team and turns to be one of the best cricketing captains in history of Indian Cricket.

- Written by [email protected]

The untold story of Mahendra Singh Dhoni's journey from ticket collector to trophy collector - the world-cup-winning captain of the Indian Cricket Team.

- Written by Utsav Shah
Cast:
Disha Patani as Priyanka Jha
Anupam Kher as Pan Singh Dhoni
Sushant Singh Rajput as M. S. Dhoni
Kiara Advani as Sakshi Singh Dhoni nee Rawat
Bhoomika Chawla as Jayanti Gupta
Rajesh Sharma as Keshav Ranjan Banerjee
Kumud Mishra as Mr. Deval
Herry Tangiri as Yuvraj Singh
Brijendra Kala as Commentator Tiwari Ji
Jitin Gulati as Gautam Gupta
Trailers:
Official Trailer With Subtitles


Watch-Free-HD     Download

Details
Name:M S Dhoni The Untold Story (2016) BluRay 1080p 5.1CH x264 Ganool
Description:
M S Dhoni The Untold Story (2016) BluRay 1080p 5.1CH x264 Ganool

.Info.

General
Complete name                            : M S Dhoni The Untold Story (2016)

BluRay 1080p 5.1CH x264 Ganool.mp4
Format                                   : MPEG-4
Format profile                           : Base Media
Codec ID                                 : isom (isom/iso2/avc1/mp41)
File size                                : 2.41 GiB
Duration                                 : 3 h 4 min
Overall bit rate                         : 1 865 kb/s
Writing application                      : Lavf57.3.100

Video
ID                                       : 1
Format                                   : AVC
Format/Info                              : Advanced Video Codec
Format profile                           : [email protected]
Format settings                          : CABAC / 5 Ref Frames
Format settings, CABAC                   : Yes
Format settings, RefFrames               : 5 frames
Codec ID                                 : avc1
Codec ID/Info                            : Advanced Video Coding
Duration                                 : 3 h 4 min
Bit rate                                 : 1 667 kb/s
Width                                    : 1 920 pixels
Height                                   : 800 pixels
Display aspect ratio                     : 2.40:1
Frame rate mode                          : Variable
Frame rate                               : 24.000 FPS
Minimum frame rate                       : 23.634 FPS
Maximum frame rate                       : 24.390 FPS
Color space                              : YUV
Chroma subsampling                       : 4:2:0
Bit depth                                : 8 bits
Scan type                                : Progressive
Bits/(Pixel*Frame)                       : 0.045
Stream size                              : 2.15 GiB (89%)
Writing library                          : x264 core 148 r2705 3f5ed56

Audio
ID                                       : 2
Format                                   : AAC
Format/Info                              : Advanced Audio Codec
Format profile                           : HE-AAC / LC
Format settings                          : Explicit
Codec ID                                 : mp4a-40-2
Duration                                 : 3 h 4 min
Bit rate mode                            : Constant
Bit rate                                 : 192 kb/s
Channel(s)                               : 2 channels
Channel(s)_Original                      : 6 channels
Channel positions                        : Front: L C R, Side: L R, LFE
Sampling rate                            : 48.0 kHz / 24.0 kHz
Frame rate                               : 23.438 FPS (1024 SPF)
Compression mode                         : Lossy
Stream size                              : 254 MiB (10%)
Default                                  : Yes
Alternate group                          : 1

Screens

 
 
 
 
 
 
 
 
 
 
 
 
 


Category:Movies > 1080P Bluray
Lang:Hindi
Total Size:2.41 GB
Info Hash:377e904d2aa590cdf293c7e1c1d473c5d1c85455
Added By:iamParas
Date Added:24-03-2018 09:09:14
Views:517
Hits:30

Download Torrent

Ratings:Not Yet Rated (Log in to rate it)


Tracker:
udp://tracker.openbittorrent.com:80/announce


File List: 


Comments

No comments still posted

Powered by 10 Hamsters v2-svn -|- Page Generated In 4.647241 secs.
-|- RSS FEED
Theme By: Nikkbu